Kill Em All 2017 Movies BRRip XviD AAC New Source with Sample ☻rDX☻ torrent download locations



Torrent contents

Size: 705.87 MB

Hash: EE1CF463F465DBD76D056184D6F6384B1406404D

Torrent description(s)

  • thepiratebay
----------------------------------------------------------------
Kill Em All 2017 Movies BRRip XviD AAC New Source with Sample ☻rDX☻

SCREEN SHOTS & POSTER:
   
http://postimage.co.nr/2017/5/interest/index.html  
http://postimage.co.nr/2017/5/interest/1.html   
http://postimage.co.nr/2017/5/interest/2.html   
http://postimage.co.nr/2017/5/interest/3.html   
http://postimage.co.nr/2017/5/interest/4.html   
http://postimage.co.nr/2017/5/interest/5.html   
http://postimage.co.nr/2017/5/interest/6.html   
http://postimage.co.nr/2017/5/interest/7.html   
http://postimage.co.nr/2017/5/interest/8.html   
http://postimage.co.nr/2017/5/interest/9.html   
http://postimage.co.nr/2017/5/interest/10.html

Format                                   : Matroska
Format version                           : Version 4 / Version 2
File size                                : 698 MiB
Duration                                 : 1 h 35 min
Overall bit rate mode                    : Constant
Overall bit rate                         : 1 018 kb/s
Movie name                               : Kill Em All 2017 Movies BRRip XviD AAC New Source ☻rDX☻

Video
ID                                       : 2
Format                                   : AVC
Format/Info                              : Advanced Video Codec
Format profile                           : [email protected]
Format settings, CABAC                   : Yes
Format settings, ReFrames                : 2 frames
Format settings, GOP                     : M=1, N=12
Codec ID                                 : V_MPEG4/ISO/AVC
Duration                                 : 1 h 35 min
Bit rate mode                            : Constant
Bit rate                                 : 571 kb/s
Width                                    : 720 pixels
Height                                   : 304 pixels
Display aspect ratio                     : 2.35:1
Frame rate mode                          : Constant
Frame rate                               : 23.976 FPS
Color space                              : YUV
Chroma subsampling                       : 4:2:0
Bit depth                                : 8 bits
Scan type                                : Progressive
Bits/(Pixel*Frame)                       : 0.109
Stream size                              : 377 MiB (54%)
Title                                    : ☻rDX☻
Default                                  : Yes
Forced                                   : No

Audio
ID                                       : 1
Format                                   : AC-3
Format/Info                              : Audio Coding 3
Mode extension                           : CM (complete main)
Format settings, Endianness              : Big
Codec ID                                 : A_AC3
Duration                                 : 1 h 35 min
Bit rate mode                            : Constant
Bit rate                                 : 448 kb/s
Channel(s)                               : 6 channels
Channel positions                        : Front: L C R, Side: L R, LFE
Sampling rate                            : 48.0 kHz
Frame rate                               : 31.250 FPS (1536 spf)
Bit depth                                : 16 bits
Compression mode                         : Lossy
Stream size                              : 307 MiB (44%)
Title                                    : ☻rDX☻
Default                                  : Yes
Forced                                   : No

Related torrents

Title
Size
Seeds
Peers

Share